ExtraTorrent.st - The Largest Bittorent System
Latest Articles
Most searched
Hot torrents
New Movies
Hot torrents
Foreign
ExtraTorrent.st > Categories > Movies torrents > Bollywood torrents


Browse Movies torrents

K G F Chapter 1 2018 x264 720p BluRay ACC Hindi Mr-X torrent


Download torrent: Magnet link
Info hash: 79BD5A710310DE8C4BC8C3E0FCC40213CA284FEA
Category: Categories > Movies torrents > Bollywood torrents
Trackers:
udp://p4p.arenabg.com:1337/announce
udp://exodus.desync.com:6969/announce
udp://tracker.sbsub.com:2710/announce
udp://tracker.opentrackr.org:1337/announce
udp://open.stealth.si:80/announce
udp://retracker.lanta-net.ru:2710/announce
http://bt1.archive.org:6969/announce
http://bt2.archive.org:6969/announce
http://tracker.files.fm:6969/announce
udp://tracker.zerobytes.xyz:1337/announce
https://tracker.nitrix.me:443/announce
udp://cutiegirl.ru:6969/announce
udp://vibe.community:6969/announce
udp://wassermann.online:6969/announce
udp://tracker.opentrackr.org:1337/announce
http://tracker.openbittorrent.com:80/announce
udp://opentracker.i2p.rocks:6969/announce
udp://tracker.internetwarriors.net:1337/announce
udp://tracker.leechers-paradise.org:6969/announce
udp://coppersurfer.tk:6969/announce
udp://tracker.zer0day.to:1337/announce
Health:
 seeds: 3, leechers: 5
Torrent language: Hindi Hindi
Total Size: 1.1 GB
Number of files:
1   
Uploader:
presenceBUS
Torrent added:2022-05-19 12:45:52

Download K G F Chapter 1 2018 x264 720p BluRay ACC Hindi Mr-X torrent




Torrent Description
Greets

Admin , Moderator , Noir, Ex0duS5150, theeshiznit, MisterQ, UserHEVC, miok, Silmarillion, Mr. Blue, MaDHeX and many more ;

Join Telegram

www.mr-x.ml



K.G.F.Chapter 1 2018

Format : Matroska
Format version : Version 4
File size : 1.08 GiB
Duration : 2 h 34 min
Overall bit rate : 998 kb/s
Movie name : K.G.F.Chapter 1 2018
Encoded date : UTC 2021-01-10 09:17:39

Video
ID : 1
Format : AVC
Format/Info : Advanced Video Codec
Format profile : [email protected]
Format settings : CABAC / 5 Ref Frames
Format settings, CABAC : Yes
Format settings, Reference fra : 5 frames
Codec ID : V_MPEG4/ISO/AVC
Duration : 2 h 34 min
Bit rate : 899 kb/s
Width : 1 280 pixels
Height : 542 pixels
Display aspect ratio : 2.35:1
Frame rate mode : Constant
Frame rate : 25.000 FPS
Color space : YUV
Chroma subsampling : 4:2:0
Bit depth : 8 bits
Scan type : Progressive
Bits/(Pixel*Frame) : 0.052
Stream size : 996 MiB (90%)
Writing library : x264 core 157 r2935 545de2f

Audio
ID : 2
Format : AAC LC
Format/Info : Advanced Audio Codec Low Complexity
Codec ID : A_AAC-2
Duration : 2 h 34 min
Bit rate : 96.0 kb/s
Channel(s) : 2 channels
Channel layout : L R
Sampling rate : 44.1 kHz
Frame rate : 43.066 FPS (1024 SPF)
Compression mode : Lossy
Delay relative to video : -103 ms
Stream size : 107 MiB (10%)
Language : Hindi
Default : Yes
Forced : No


Download K G F Chapter 1 2018 x264 720p BluRay ACC Hindi Mr-X torrent


Related Torrents

Added  Size  Health
Download Magnet link   K G F KGF Chapter 1 (2018) Hindi (Line Aud) HDRip x264 400MB ESubs in Highres Movies , by
Farrumfluffy
3y 443.41 MB 9 10
Download Magnet link   K G F KGF (2018) Malayalam (Org Vers) HDRip - 720p - x264 - DD5 1 - 1 4GB - ESu in Highres Movies , by
satshaDE
3y 1.42 GB 7 3
Download Magnet link   K G F KGF (2018) Malayalam (Org Vers) HDRip - 250MB - x264 - MP3 - ESub in Highres Movies , by
LOLer
3y 251.6 MB 7 1
Download Magnet link   K G F KGF Chapter 1 (2018) Tamil HDRip x264 250MB ESubs in Highres Movies , by
IRISHMAN
3y 284.01 MB 0 0
Download Magnet link   K G F KGF (2018) Telugu (Org Vers) HDRip - 700MB - x264 - 1CD - MP3 - ESub in Highres Movies , by
NP_Bones
3y 714.77 MB 75 22




Home - Browse Torrents
ExtraTorrent.st is in compliance with copyrights
2021 ExtraTorrent.st