ExtraTorrent.st - The Largest Bittorent System
Latest Articles
Most searched
Hot torrents
New Movies
Hot torrents
Foreign
ExtraTorrent.st > Categories > Movies torrents > Highres Movies torrents


Browse Movies torrents

Dual 2022 1080p WEBRip DD5 1 x264-NOGRP torrent


Download torrent: Magnet link
Info hash: 9A62590E9CF357988EECB28AA9A3A3BA042CD03E
Category: Categories > Movies torrents > Highres Movies torrents
Trackers:
http://tracker.trackerfix.com:80/announce
udp://9.rarbg.me:2810/announce
udp://9.rarbg.to:2940/announce
udp://tracker.slowcheetah.org:14750/announce
udp://tracker.tallpenguin.org:15750/announce
udp://tracker.opentrackr.org:1337/announce
http://tracker.openbittorrent.com:80/announce
udp://opentracker.i2p.rocks:6969/announce
udp://tracker.internetwarriors.net:1337/announce
udp://tracker.leechers-paradise.org:6969/announce
udp://coppersurfer.tk:6969/announce
udp://tracker.zer0day.to:1337/announce
Health:
 seeds: 998, leechers: 67
Torrent language: English English
Total Size: 6.9 GB
Number of files:
2   
Uploader:
Smobtractor
Torrent added:2022-05-20 07:17:46

Download Dual 2022 1080p WEBRip DD5 1 x264-NOGRP torrent




Torrent Description
Screens... (click to enlarge):








Infolink -> https://www.imdb.com/title/tt9005184/

Mediainfo


Quote:

Video
ID : 1
Format : AVC
Format/Info : Advanced Video Codec
Format profile : [email protected]
Format settings : CABAC / 4 Ref Frames
Format settings, CABAC : Yes
Format settings, Reference frames : 4 frames
Codec ID : V_MPEG4/ISO/AVC
Duration : 1 h 34 min
Bit rate : 10.1 Mb/s
Width : 1 916 pixels
Height : 1 028 pixels
Display aspect ratio : 1.85:1
Frame rate mode : Constant
Frame rate : 23.976 (24000/1001) FPS
Color space : YUV
Chroma subsampling : 4:2:0
Bit depth : 8 bits
Scan type : Progressive
Bits/(Pixel*Frame) : 0.214
Stream size : 6.65 GiB (96%)
Language : English
Default : Yes
Forced : No
Color range : Limited
Color primaries : BT.709
Transfer characteristics : BT.709
Matrix coefficients : BT.709

Audio
ID : 2
Format : AC-3
Format/Info : Audio Coding 3
Commercial name : Dolby Digital
Codec ID : A_AC3
Duration : 1 h 34 min
Bit rate mode : Constant
Bit rate : 384 kb/s
Channel(s) : 6 channels
Channel layout : L R C LFE Ls Rs
Sampling rate : 48.0 kHz
Frame rate : 31.250 FPS (1536 SPF)
Compression mode : Lossy
Stream size : 259 MiB (4%)
Language : English
Service kind : Complete Main
Default : Yes
Forced : No

Text #1
ID : 3
Format : UTF-8
Codec ID : S_TEXT/UTF8
Codec ID/Info : UTF-8 Plain Text
Duration : 1 h 27 min
Bit rate : 67 b/s
Count of elements : 1260
Stream size : 42.9 KiB (0%)
Language : English
Default : Yes
Forced : No

Text #2
ID : 4
Format : UTF-8
Codec ID : S_TEXT/UTF8
Codec ID/Info : UTF-8 Plain Text
Duration : 1 h 29 min
Bit rate : 56 b/s
Count of elements : 1205
Stream size : 36.8 KiB (0%)
Title : Latin American
Language : Spanish
Default : No
Forced : No

Download Dual 2022 1080p WEBRip DD5 1 x264-NOGRP torrent


Related Torrents

Added  Size  Health
Download Magnet link   Mahaan (2022) DUAL (Tamil+Telugu) (2160p AMZN WEBRip x265 HEVC 10bit DDP 5 1 ESub) - [Musafirboy] in Highres Movies , by
mutuallyeXXon
4m 5.6 GB 1 6
Download Magnet link   The Ice Age Adventures of Buck Wild 2022 720p WEB h264-Dual YG in Movies , by
IRISHMAN
5m 943.7 MB 1 21
Download Magnet link   Tom And Jerry Cowboy Up 2022 1080p WEB H264-Dual YG in Movies , by
spurpick_33
5m 1.5 GB 1 2
Download Magnet link   The Royal Treatment 2022 720p WEB H264-Dual YG in DVD , by
Pacific_cold
5m 884 MB 2 4
Download Magnet link   The House (2022) 1080p WEB-DL [Hindi + English] 5 1 Dual-Audio x264 ESub - KatmovieHD in Dubbed Movies , by
Farrumfluffy
5m 2.1 GB 11 6




Home - Browse Torrents
ExtraTorrent.st is in compliance with copyrights
2021 ExtraTorrent.st