ExtraTorrent.st - The Largest Bittorent System
Latest Articles
Most searched
Hot torrents
New Movies
Hot torrents
Foreign
ExtraTorrent.st > Categories > Movies torrents > Bollywood torrents


Browse Movies torrents

Toolsidas Junior (2022) Hindi 720p HDTVRip x264 AAC 1 1GB torrent


Download torrent: Download  Toolsidas Junior (2022) Hindi 720p HDTVRip x264 AAC 1 1GB torrent Magnet link  Toolsidas Junior (2022) Hindi 720p HDTVRip x264 AAC 1 1GB
Info hash: 6D7FD2D2ECCA140B9E260AF8586498B7E6A28B84
Category: Categories > Movies torrents > Bollywood torrents
Trackers:
udp://inferno.demonoid.is:3391/announce
udp://open.stealth.si:80/announce
udp://tracker.tiny-vps.com:6969/announce
udp://fasttracker.foreverpirates.co:6969/announce
udp://tracker.opentrackr.org:1337/announce
udp://explodie.org:6969/announce
udp://tracker.cyberia.is:6969/announce
udp://ipv4.tracker.harry.lu:80/announce
udp://tracker.uw0.xyz:6969/announce
udp://opentracker.i2p.rocks:6969/announce
udp://tracker.birkenwald.de:6969/announce
udp://tracker.torrent.eu.org:451/announce
udp://tracker.moeking.me:6969/announce
udp://9.rarbg.me:2970/announce
Health:
 seeds: 26, leechers: 1
Torrent language: Hindi Hindi
Total Size: 1.1 GB
Number of files:
8   
Uploader:
Coursesghar
Torrent added:2022-05-22 07:26:32

Download Toolsidas Junior (2022) Hindi 720p HDTVRip x264 AAC 1 1GB torrent




Torrent Description
:::::::Poster:::::::


IMDB Ratings: 8.8/10
Directed: Mridul Mahendra
Released Date: 4 March 2022
Genres: Drama,Family,Sport
Languages: Hindi
Film Stars: Sara Arjun,Varun Buddhadev,Sanjay Dutt
Movie Quality: 480p HDTVRip



Screens:



Format                                  : Matroska
Format version                          : Version 4
File size                                : 1.10 GiB
Duration                                : 2 h 23 min
Overall bit rate                        : 1 098 kb/s
Encoded date                            : UTC 2022-05-22 02:41:07
Writing application                      : mkvmerge v56.1.0 ('My Friend') 64-bit
Writing library                          : libebml v1.4.2 + libmatroska v1.6.4

Video
ID                                      : 1
Format                                  : AVC
Format/Info                              : Advanced Video Codec
Format profile                          : [email protected]
Format settings                          : CABAC / 4 Ref Frames
Format settings, CABAC                  : Yes
Format settings, Reference frames        : 4 frames
Codec ID                                : V_MPEG4/ISO/AVC
Duration                                : 2 h 23 min
Bit rate                                : 966 kb/s
Width                                    : 1 274 pixels
Height                                  : 720 pixels
Display aspect ratio                    : 16:9
Frame rate mode                          : Constant
Frame rate                              : 25.000 FPS
Color space                              : YUV
Chroma subsampling                      : 4:2:0
Bit depth                                : 8 bits
Scan type                                : Progressive
Bits/(Pixel*Frame)                      : 0.042
Stream size                              : 994 MiB (88%)
Title                                    : mkvpapa.icu
Writing library                          : x264 core 155 r2917 0a84d98
Encoding settings                        : cabac=1 / ref=1 / deblock=1:0:0 / analyse=0x3:0x3 / me=dia / subme=1 / psy=1 / psy_rd=1.00:0.00 / mixed_ref=0 / me_range=16 / chroma_me=1 / trellis=0 / 8x8dct=1 / cqm=0 / deadzone=21,11 / fast_pskip=1 / chroma_qp_offset=0 / threads=22 / lookahead_threads=3 / sliced_threads=0 / nr=0 / decimate=1 / interlaced=0 / bluray_compat=0 / constrained_intra=0 / bframes=3 / b_pyramid=2 / b_adapt=1 / b_bias=0 / direct=1 / weightb=1 / open_gop=0 / weightp=1 / keyint=250 / keyint_min=25 / scenecut=40 / intra_refresh=0 / rc=abr / mbtree=0 / bitrate=966 / ratetol=1.0 / qcomp=0.60 / qpmin=0 / qpmax=69 / qpstep=4 / ip_ratio=1.40 / pb_ratio=1.30 / aq=1:1.00
Default                                  : Yes
Forced                                  : No

Audio
ID                                      : 2
Format                                  : AAC LC
Format/Info                              : Advanced Audio Codec Low Complexity
Codec ID                                : A_AAC-2
Duration                                : 2 h 23 min
Bit rate                                : 128 kb/s
Channel(s)                              : 1 channel
Channel layout                          : C
Sampling rate                            : 44.1 kHz
Frame rate                              : 43.066 FPS (1024 SPF)
Compression mode                        : Lossy
Delay relative to video                  : -30 ms
Stream size                              : 132 MiB (12%)
Title                                    : mkvpapa.icu
Language                                : Hindi
Default                                  : Yes
Forced                                  : No

Text
ID                                      : 3
Format                                  : UTF-8
Codec ID                                : S_TEXT/UTF8
Codec ID/Info                            : UTF-8 Plain Text
Duration                                : 34 s 745 ms
Bit rate                                : 65 b/s
Count of elements                        : 2
Stream size                              : 284 Bytes (0%)
Title                                    : mkvpapa.icu
Default                                  : Yes
Forced                                  : No




Download Toolsidas Junior (2022) Hindi 720p HDTVRip x264 AAC 1 1GB torrent


Related Torrents

Added  Size  Health
Download Magnet link   Toolsidas Junior 2022 1080p Hindi WEB-DL H 264 DDP5 1-NbT in Highres Movies , by
crAck_
1m 2.4 GB 2 6
Download Magnet link   Toolsidas Junior 2022 x264 720p Nf Esub AAC Hindi Mr-X in Bollywood , by
LOLer
1m 931.7 MB 10 2
Download Magnet link   Toolsidas Junior NF (2022) Hindi HDRip - 1080p - 2 5GB - ESub - QRips in Bollywood , by
0x1e
1m 2.5 GB 0 0
Download Magnet link   Toolsidas Junior 2022 Hindi 720p NF WEBRip AAC 5 1 MSubs x264 - mkvAnime in Bollywood , by
0x1e
1m 1.6 GB 0 0
Download Magnet link   Toolsidas Junior (2022) NF Hindi 720p WEBRip x264 AAC 5 1 ESub in Bollywood , by
Farrumfluffy
1m 1.2 GB 0 0




Home - Browse Torrents
ExtraTorrent.st is in compliance with copyrights
2021 ExtraTorrent.st